Pokiri Telugu Mp3 Songlasopaopolis

Songlasopaopolis

Other. Mahesh Babu Telugu Movie Pokiri Dialogue Page 1 of 2 1 2. The best South Indian Entertainment Website. Huge collection of Trolls. Tags: Tamil Hd Movies 1080p Blu Ray 5.1 Full Movie Video Songs, Video, Tamil Hd Movies 1080p Blu Ray 5.1 Full Movie bollywood movie video,.Download Pokiri in hindi dubbed full movie hd mp3,. Wanted full movie 1080p hindi. This video and mp3 song of Raja pokiri raja tamil full action movie.Home Movies Action Pokiri Full Movie. Pokiri is a Telugu album released in 2006.There are a total of 6 songs in Pokiri.The songs were composed by talented musicians such as Mani Sharma.Listen to all of Pokiri online on JioSaavn.

  1. Samsaram Oka Chadarangam Telugu Movie Bittorrent Free Downl. Mp3 songs download; samsaram oka chadarangam movie free. 14:52 Samsaram Oka Chadarangam VCD CD1 bychinnamama. Pokiri Telugu Mp3 Songs in song HD MP4 and MP3 3GP Lagu Format, List download link of.
  2. Watch Pokiri Full Movie, starring Mahesh Babu, Ileana, Prakash Raj, Sayaji Shinde, Asish Vidyardhi, Nasseer, Brahmanandam, Ali, Venu Madhav among others.
SongsPokiri

Pokiri Telugu Mp3 Songs Com

Complete name : E:Pokiri ( 2006 ) AVC- DVD RIP 3 CD By Idreambav .mp4
Format : MPEG-4
Format profile : Base Media / Version 2
Codec ID : mp42
File size : 2.04 GiB
Duration : 2h 43mn
Overall bit rate : 1 780 Kbps
Source : DVD 9(VOLGA)
Ripper : Idreambav
Writing application : HandBrake 0.9.4 2009112300
Video #1
ID : 1
Format : AVC
Format/Info : Advanced Video Codec
Format profile : [email protected]
Format settings, CABAC : Yes
Format settings, ReFrames : 2 frames
Codec ID : avc1
Codec ID/Info : Advanced Video Coding
Duration : 2h 43mn
Bit rate mode : Variable
Bit rate : 1 626 Kbps
Width : 706 pixels
Height : 322 pixels
Display aspect ratio : 2.35:1
Frame rate mode : Variable
Frame rate : 25.000 fps
Minimum frame rate : 12.500 fps
Maximum frame rate : 247.253 fps
Color space : YUV
Chroma subsampling : 4:2:0
Bit depth : 8 bits
Scan type : Progressive
Bits/(Pixel*Frame) : 0.286
Stream size : 1.85 GiB (91%)
Writing library : x264 core 79
Audio #2
ID : 2
Format : AAC
Format/Info : Advanced Audio Codec
Format profile : LC
Codec ID : 40
Duration : 2h 43mn
Bit rate mode : Variable
Bit rate : 160 Kbps
Maximum bit rate : 259 Kbps
Channel(s) : 2 channels
Channel positions : Front: L R
Sampling rate : 48.0 KHz
Compression mode : Lossy
Stream size : 188 MiB (9%)
Language : Telugu
Encoded date : UTC 2011-10-31 15:02:49
Tagged date : UTC 2011-10-31 16:46:41
SCREENSHOTS :
http://i1237.photobucket.com/albums/..h21m26s160.png
http://i1237.photobucket.com/albums/..h21m53s177.png
http://i1237.photobucket.com/albums/..h22m00s239.png
http://i1237.photobucket.com/albums/..1h22m10s85.png
http://i1237.photobucket.com/albums/..h22m38s106.png
http://i1237.photobucket.com/albums/..h22m42s149.png
http://i1237.photobucket.com/albums/..h23m29s110.png
http://i1237.photobucket.com/albums/..1h23m49s57.png

movie link-
http://www.ziddu.com/download/17289613/Pokiri2006X264-DVDRIP.mp4.torrent.html